<?xml version="1.0" standalone="no"?>
<!DOCTYPE svg PUBLIC "-//W3C//DTD SVG 1.1//EN" "http://www.w3.org/Graphics/SVG/1.1/DTD/svg11.dtd">
<svg xmlns="http://www.w3.org/2000/svg">
<metadata>Copyright (C) 2019 by original authors @ fontello.com</metadata>
<defs>
<font id="fontello" horiz-adv-x="1000" >
<font-face font-family="fontello" font-weight="400" font-stretch="normal" units-per-em="1000" ascent="850" descent="-150" />
<missing-glyph horiz-adv-x="1000" />
<glyph glyph-name="delete-wide" unicode="&#xe800;" d="M424 353l-408-408 79-79 408 408 405-405 78 78-405 406 403 402-79 79-402-403-405 405-79-78 405-405z" horiz-adv-x="1000" />

<glyph glyph-name="delete" unicode="&#xe801;" d="M463 353l-427-428 39-39 428 427 425-424 39 39-425 425 422 422-39 39-422-422-425 425-39-39 424-425z" horiz-adv-x="1000" />

<glyph glyph-name="circle-delete" unicode="&#xe802;" d="M481 351l-181 181 21 21 180-181 180 180 21-21-180-180 181-180-21-21-181 181-182-183-21 21 183 182z m19-486c-268 0-485 217-485 485 0 268 217 485 485 485 268 0 485-217 485-485 0-268-217-485-485-485z m0 29c252 0 456 204 456 456 0 252-204 456-456 456-252 0-456-204-456-456 0-252 204-456 456-456z" horiz-adv-x="1000" />

<glyph glyph-name="circle-check" unicode="&#xe803;" d="M500-135c-268 0-485 217-485 485 0 268 217 485 485 485 268 0 485-217 485-485 0-268-217-485-485-485z m0 29c252 0 456 204 456 456 0 252-204 456-456 456-252 0-456-204-456-456 0-252 204-456 456-456z m-195 519l-21-21 208-206 232 302-23 18-212-276-184 183z" horiz-adv-x="1000" />

<glyph glyph-name="circle-arrow-up" unicode="&#xe804;" d="M500-135c-268 0-485 217-485 485 0 268 217 485 485 485 268 0 485-217 485-485 0-268-217-485-485-485z m0 29c252 0 456 204 456 456 0 252-204 456-456 456-252 0-456-204-456-456 0-252 204-456 456-456z m-211 341l-22 20 235 240 234-240-21-20-213 218-213-218z" horiz-adv-x="1000" />

<glyph glyph-name="arrow-right" unicode="&#xe805;" d="M254-53l39-40 453 443-453 443-39-40 413-403-413-403 0 0z" horiz-adv-x="1000" />

<glyph glyph-name="check" unicode="&#xe806;" d="M925 742l-467-608-405 404-58-58 465-471 533 684-68 49z" horiz-adv-x="1000" />

<glyph glyph-name="security" unicode="&#xe807;" d="M349 878v123c0 161-131 292-291 292-161 0-292-131-292-292v-123h583z m-475 0v123c0 101 82 184 184 184 101 0 183-83 183-184v-123h-367z m-192-395h751v119h-751v-119z m0-190h751v118h-751v-118z m0 380h751v119h-751v-119z" horiz-adv-x="1000" />

<glyph glyph-name="arrow-down" unicode="&#xe808;" d="M903 596l40-39-443-453-443 453 40 39 403-412 403 412 0 0z" horiz-adv-x="1000" />

<glyph glyph-name="arrow-left" unicode="&#xe809;" d="M746-53l-39-40-453 443 453 443 39-40-412-403 412-403 0 0z" horiz-adv-x="1000" />

<glyph glyph-name="arrow-up" unicode="&#xe80a;" d="M903 104l40 39-443 453-443-453 40-39 403 413 403-413 0 0z" horiz-adv-x="1000" />

<glyph glyph-name="circle-mute" unicode="&#xe80b;" d="M500-153c-278 0-503 225-503 503 0 278 225 503 503 503 278 0 503-225 503-503 0-278-225-503-503-503z m0 31c261 0 472 211 472 472 0 261-211 472-472 472-261 0-472-211-472-472 0-261 211-472 472-472z m-215 594l215 153 0-553-212 157-123 0 0 243 120 0z m10-30l-100 0 0-183 104 0 171-127 0 434-175-124z m439-93l107 108-21 21-108-108-108 108-21-21 108-108-108-108 21-21 108 107 108-107 21 21-107 108z" horiz-adv-x="1000" />

<glyph glyph-name="follow" unicode="&#xe80c;" d="M570-23l-510 0c-32 0-59 25-58 57 1 73 13 116 108 137 114 26 227 48 173 145-161 288-46 450 127 450 170 0 288-156 127-450-12-22-16-41-13-56-15-33-23-69-23-108 0-67 26-129 69-175z m226 198l0 86c0 13-11 23-23 23-13 0-23-10-23-23l0-86-86 0c-13 0-23-10-23-23 0-12 10-22 23-22l86 0 0-87c0-12 10-22 23-22 12 0 23 10 23 22l0 87 86 0c12 0 22 10 22 22 0 13-10 23-22 23l-86 0z m-23-233c-120 0-218 94-218 210 0 117 98 211 218 211 120 0 218-94 218-211 0-116-98-210-218-210z" horiz-adv-x="1000" />

<glyph glyph-name="follow-success" unicode="&#xe80d;" d="M500-100c249 0 450 202 450 450 0 249-201 450-450 450-248 0-450-201-450-450 0-248 202-450 450-450z m0-50c-276 0-500 224-500 500 0 276 224 500 500 500 276 0 500-224 500-500 0-276-224-500-500-500z m179 664c8 12 24 14 35 7 12-8 14-24 7-35l-242-350c-9-13-28-15-39-3l-208 218c-10 10-9 25 1 35 10 9 26 9 35-1l187-195 224 324z" horiz-adv-x="1000" />

<glyph glyph-name="referral" unicode="&#xe80e;" d="M395 476l0 59c2-5 5-11 7-18 3-9 7-20 9-33 20 8 42 14 64 16-8 37-19 65-33 86-13 21-29 34-44 42-13 7-26 8-33 9-1 0-1 0-2 0l-159 0c0 0-1 0-2 0-7-1-19-2-33-9-22-12-46-36-63-80-17-43-28-107-28-202 0-25 1-51 2-81 1-17 16-31 33-31 1 0 2 0 2 0 18 1 32 17 31 35-1 28-2 54-2 77 0 102 14 159 28 189l0-631c0-29 23-52 51-52 28 0 51 23 51 52l0 356c0 4 0 9 0 13 0 89 49 165 121 203z m-102-296l0-276c0-29 23-52 51-52 28 0 51 23 51 52l0 167c-45 24-81 62-102 109z m528 448c-14 7-26 8-34 9-1 0-1 0-2 0l-159 0c0 0-1 0-1 0-8-1-20-2-34-9-22-12-46-36-63-80-5-14-10-30-14-48 23-2 44-7 64-16 5 22 11 39 17 51l0-58c73-38 123-115 123-204 0-11-1-22-3-33l0-336c0-29 23-52 51-52 28 0 51 23 51 52l0 631c2-5 5-11 7-18 12-33 22-87 22-171 0-23-1-49-3-77-1-18 13-34 31-35 1 0 2 0 2 0 17 0 32 14 33 31 2 30 2 56 2 81 0 127-20 197-47 240-13 21-29 34-43 42z m-226-558l0-166c0-29 22-52 50-52 29 0 51 23 51 52l0 272c-21-46-57-83-101-106z m-311 780c51 0 92-42 92-95 0-52-41-94-92-94-51 0-93 42-93 94 0 53 42 95 93 95z m422 0c51 0 92-42 92-95 0-52-41-94-92-94-51 0-93 42-93 94 0 53 42 95 93 95z m-210-366c-114 0-206-94-206-211 0-116 92-210 206-210 113 0 205 94 205 210 0 117-92 211-205 211z m0-371c-86 0-157 72-157 160 0 89 71 160 157 160 86 0 156-71 156-160 0-88-70-160-156-160z m-4 253l0-67-94 0 0-51 94 0 0-67 100 92-100 93z" horiz-adv-x="1000" />

<glyph glyph-name="star" unicode="&#xe80f;" d="M489 3l-254-140c-16-9-36-3-45 13-4 6-5 14-4 21l52 318-221 226c-13 13-13 34 0 47 5 5 11 8 18 9l305 47 135 286c8 17 28 24 44 16 7-3 13-9 16-16l135-286 305-47c18-3 30-19 27-38-1-6-4-13-9-18l-221-226 52-318c3-18-10-35-28-38-7-1-14 0-21 4l-254 140c-10 5-22 5-32 0z" horiz-adv-x="1010" />

<glyph glyph-name="referral-circle" unicode="&#xe810;" d="M498-146c-275 0-498 223-498 498 0 275 223 498 498 498 275 0 498-223 498-498 0-275-223-498-498-498z m0 47c249 0 451 202 451 451 0 249-202 451-451 451-249 0-451-202-451-451 0-249 202-451 451-451z m57 292l0-94c0-17 13-30 29-30 15 0 28 13 28 30l0 154c-12-26-32-47-57-60z m-172 63l0-157c0-17 13-30 29-30 16 0 29 13 29 30l0 95c-25 13-46 35-58 62z m280 259c0 0 1 0 1 0 4 0 11-1 19-5 8-4 17-12 25-24 15-24 27-64 27-136 0-14-1-29-2-46 0-10-8-18-18-18-1 0-1 0-1 0-11 1-19 10-18 20 1 16 1 31 1 44 0 48-5 79-12 97-1 4-3 8-4 10l0-358c0-17-13-30-29-30-16 0-29 13-29 30l0 191c1 6 2 12 2 19 0 50-29 94-70 115l0 34c-4-7-7-17-10-29-11 4-23 7-36 8 2 11 5 20 8 28 10 25 23 39 36 45 7 4 14 5 19 5 0 0 0 0 1 0l90 0z m-240 0c0 0 1 0 1 0 4 0 11-1 19-5 8-4 17-12 25-24 8-12 14-27 19-49-13-1-25-4-36-9-2 8-4 14-6 19-1 4-3 8-4 10l0-33c-41-22-69-65-69-115 0-3 0-5 0-8l0-202c0-17-12-30-28-30-16 0-29 13-29 30l0 359c-8-17-17-50-17-108 0-13 1-28 2-43 0-11-8-20-18-21 0 0-1 0-1 0-10 0-18 8-19 18-1 17-1 32-1 46 0 54 6 90 16 115 10 25 23 39 36 45 8 4 14 5 19 5 0 0 0 0 1 0l90 0z m75-87c-64 0-116-53-116-119 0-66 52-120 116-120 65 0 117 54 117 120 0 66-52 119-117 119z m0-210c-49 0-88 41-88 91 0 50 39 91 88 91 49 0 89-41 89-91 0-50-40-91-89-91z m-1 105l0 38 56-52-56-53 0 38-54 0 0 29 54 0z m-119 314c29 0 52-25 52-54 0-30-23-54-52-54-29 0-53 24-53 54 0 29 24 54 53 54z m240 0c29 0 52-25 52-54 0-30-23-54-52-54-29 0-53 24-53 54 0 29 24 54 53 54z" horiz-adv-x="1000" />

<glyph glyph-name="pin" unicode="&#xe811;" d="M203 142c-60-71-121-142-181-214-16-19-17-40-1-56 15-15 36-15 55 1 52 43 104 86 155 130 24 19 48 39 72 60-30 30-60 60-90 91-4-5-7-8-10-12z m425-279c43 48 41 132 3 225 0 2 1 3 3 5 87 118 175 236 262 354l12-13c20-19 51-19 71 0l6 7c20 20 20 51 0 71l-323 323c-20 20-51 20-71 0l-7-6c-19-20-19-51 0-71l17-16c-119-88-239-175-359-262 0-1 0-1 0-1-96 41-184 45-231-2-5-6-21-23-2-41l576-576c20-21 37-4 43 3z m-223 515c-24 20-49 38-74 54 107 86 213 173 319 260l56-56c-101-86-201-172-301-258z" horiz-adv-x="1000" />

<glyph glyph-name="circle-play" unicode="&#xe812;" d="M500-108c253 0 458 205 458 458 0 253-205 458-458 458-253 0-458-205-458-458 0-253 205-458 458-458z m0-42c-276 0-500 224-500 500 0 276 224 500 500 500 276 0 500-224 500-500 0-276-224-500-500-500z m-65 697l244-170c14-11 18-31 8-46-3-3-5-5-8-8l-244-170c-15-11-35-7-46 8-4 5-6 12-6 18l0 342c0 18 15 32 33 32 7 0 13-2 19-6z" horiz-adv-x="1000" />

<glyph glyph-name="webinar" unicode="&#xe813;" d="M42 642l916 0 0 125c0 23-18 41-41 41l-834 0c-23 0-41-18-41-41l0-125z m0-42l0-667c0-23 18-41 41-41l834 0c23 0 41 18 41 41l0 667-916 0z m41 250l834 0c46 0 83-37 83-83l0-834c0-46-37-83-83-83l-834 0c-46 0-83 37-83 83l0 834c0 46 37 83 83 83z m42-167c-23 0-42 19-42 42 0 23 19 42 42 42 23 0 42-19 42-42 0-23-19-42-42-42z m125 0c-23 0-42 19-42 42 0 23 19 42 42 42 23 0 42-19 42-42 0-23-19-42-42-42z m125 0c-23 0-42 19-42 42 0 23 19 42 42 42 23 0 42-19 42-42 0-23-19-42-42-42z m51-244l244-171c15-10 19-30 8-45-2-3-5-6-8-8l-244-171c-14-10-35-6-45 8-4 6-6 12-6 19l0 341c0 18 15 33 33 33 6 0 13-2 18-6z" horiz-adv-x="1000" />

<glyph glyph-name="live-chat" unicode="&#xe814;" d="M236 661c75 111 193 167 352 167 218 0 392-180 392-359 0-66-13-118-36-160-11-20-32-49-32-46 0-34 4-60 20-96 1-1 1-1 2-3 5-11 12-22 21-35 4-6 24-34 28-41 5-7 7-13 9-19 3-15-8-29-24-29-30 0-81 7-124 19-30 9-63 21-99 38-77-87-196-144-329-144-55 0-109 10-159 29-40-22-87-38-138-51-33-9-62-14-80-16-2-1-2-1-5-1-13 0-25 8-30 19-7 13-4 29 6 40 25 24 44 80 52 157-40 59-62 126-62 196 0 148 97 275 236 335z m74 24c34 9 69 13 106 13 229 0 417-167 417-372 0-72-23-139-62-195 31-14 59-24 85-32 25-7 55-13 79-15-6 9-12 18-15 21-10 15-18 28-24 41-1 2-1 2-2 4-19 42-23 73-23 113 0 13 32 58 36 65 20 37 32 82 32 141 0 157-156 317-351 317-120 0-212-33-278-101z m-201-717c52 13 99 30 137 51l8 5 8-4c49-19 101-29 154-29 209 0 378 151 378 335 0 183-169 334-378 334-209 0-378-151-378-334 0-64 20-126 59-180l4-6 0-7c-8-81-27-144-56-179 16 3 39 7 64 14z m109 316c23 0 42 19 42 42 0 22-19 41-42 41-24 0-42-19-42-41 0-23 18-42 42-42z m0-38c-44 0-80 36-80 80 0 43 36 79 80 79 44 0 80-36 80-79 0-44-36-80-80-80z m198 38c24 0 42 19 42 42 0 22-18 41-42 41-23 0-42-19-42-41 0-23 19-42 42-42z m0-38c-44 0-80 36-80 80 0 43 36 79 80 79 44 0 80-36 80-79 0-44-36-80-80-80z m199 38c23 0 42 19 42 42 0 22-19 41-42 41-23 0-42-19-42-41 0-23 19-42 42-42z m0-38c-44 0-80 36-80 80 0 43 36 79 80 79 44 0 80-36 80-79 0-44-36-80-80-80z" horiz-adv-x="1000" />

<glyph glyph-name="community" unicode="&#xe815;" d="M283 374l84-24-61-18-14-4-45-13c-19-4-36-12-51-23-28-19-48-48-57-80-4-11-6-22-6-34l-87 0c-25 0-46 21-46 47l0 47c0 37 26 70 62 78l84 24 0 28c-13 11-22 25-27 42-1 5-2 9-3 13-12 2-21 12-23 24l-5 32c-1 10 1 19 8 27 1 1 2 2 4 4-3 8-4 17-4 26l0 0c1 32 14 62 38 83 0 5 3 9 6 12 20 15 44 23 69 23l10 0c20 0 39-9 55-20 5 1 10 0 14-3 0 0 1-1 1-1 0-3 0-5 0-7 0-13 1-25 3-37-1-2-3-5-5-7-2 5-6 11-9 15 0 0 0 0 0 0-4 0-8 1-10 4-14 10-33 23-49 23l-10 0c-15 0-29-4-42-12-1-5-3-9-6-11-20-15-31-38-31-62l3 6c4 6 12 9 19 7 20-6 41-2 58 9l19 14c6 4 15 3 21-2l5-6c6-5 15-8 23-6-3-10-4-20-2-31l2-14-5 11c-13 0-26 4-36 12l-9-5c-21-15-48-21-73-17l-17-27c-4-5-10-8-16-7l4-24 3 0c8 0 15-6 16-14 1-1 1-4 6-24 4-13 13-25 25-31l14-8c15-8 33-8 48 0l14 8c12 6 21 18 25 31 5 20 6 23 6 24 1 5 4 9 8 12 6-13 16-22 28-29-2-1-4-2-7-2-1-4-2-8-3-13-5-17-14-31-26-42l0-28z m655-24c36-8 62-41 62-78l0-47c0-26-21-47-46-47l-87 0c0 12-2 23-6 34-9 32-29 61-56 80-16 11-33 19-52 23l-45 13-14 4-60 18 83 24 0 28c-12 11-21 25-26 42-1 5-2 9-3 13-2 0-5 1-7 2 12 7 22 16 28 28 4-2 7-6 8-11 0-1 1-4 6-24 4-13 13-25 25-31l14-8c15-8 33-8 48 0l14 8c12 6 21 18 25 31 5 20 6 23 6 24 1 8 8 14 16 14l3 0 4 24c-6-1-12 2-16 7l-17 27c-26-4-52 2-73 17l-9 5c-10-8-22-12-35-12l-1 0-5-11 2 14c2 11 1 21-2 31 8-2 17 1 23 6l5 6c6 5 15 6 21 2l20-14c16-11 37-15 57-9 7 2 15-1 19-7l3-6c0 24-11 47-31 62-3 2-5 6-6 11-12 8-27 12-42 12l-10 0c-16 0-35-13-48-23-3-3-7-4-11-4-3-4-7-10-9-15-2 2-4 5-5 7 0 0 0 0 0 0 2 12 3 24 3 37l0 1c0 2 0 4 0 6 0 0 1 1 1 1 4 3 9 4 14 3 16 11 35 20 55 20l10 0c25 0 49-8 69-23 3-3 6-7 6-12 24-21 37-51 38-83l0 0c0-9-1-18-4-26 2-2 3-3 4-4 7-8 9-17 8-27l-5-32c-2-12-11-22-23-24-1-4-2-8-3-13-5-17-14-31-26-42l0-28 83-24z m-191-58c57-12 98-64 98-123l0-76c0-41-33-73-72-73l-25 0-26 0-495 0c-39 0-71 32-71 73l0 76c0 59 40 111 97 123l139 41 0 50c-20 18-36 42-43 69-2 10-4 17-6 23-18 3-33 18-36 37l-8 53c-2 14 2 29 11 40 3 2 5 5 8 7-4 15-6 30-6 45 1 59 29 120 70 152 6 5 14 6 21 4 26 19 56 34 89 34l16 0c40 0 78-14 110-38 5-4 9-11 9-18l0 0c38-34 60-82 61-134l0 0c0-15-2-30-6-45 3-2 5-5 8-7 9-11 13-26 11-40l-8-53c-3-19-18-34-36-37-2-6-4-13-6-23-7-27-23-51-43-69l0-50 139-41z m-156-3c-18 4-30 19-30 37l0 29c-19-10-40-15-61-15-21 0-42 5-61 15l0-29c0-18-12-33-30-37l-7-3c25-28 60-44 98-44 38 0 73 16 98 44l-7 3z m-206 213c0-1 1-7 10-38 6-24 21-44 42-55l23-12c25-14 55-14 80 0l23 12c21 11 36 31 42 55 9 31 10 37 10 39 2 11 12 18 23 18l9 0 8 51c0 0 0 1 0 2-1 1-2 1-3 1-1 0-3 0-5 1-5 1-10 4-14 9-2 3-2 8-2 13 0 10-3 21-8 30-4 6-12 9-19 7-35-11-72-5-102 16l-32 22c-6 5-15 4-21-2l-9-9c-12-12-31-17-48-12-8 2-16-2-19-9l-2-4c-4-10-5-21-1-31 0 0 0 0 0 0 2-7 1-15-3-21-4-5-9-8-14-9-2-1-4-1-5-1-1 0-2 0-3-1 0-1 0-2 0-2l8-51 9 0c11 0 21-8 23-19z m413-409l0 76c0 38-26 70-61 78-1 0-1 0-2 0l-102 29-4-6c-32-39-79-62-129-62-50 0-97 23-128 62l-5 6-102-29c-1 0-1 0-2 0-35-8-61-40-61-78l0-76c0-15 11-26 25-26l495 0 26 0 25 0c14 0 25 11 25 26z" horiz-adv-x="1000" />

<glyph glyph-name="google" unicode="&#xe816;" d="M499 256l0 136 453 0c4-24 6-52 6-82 0-103-27-229-116-320-86-91-197-140-343-140-271 0-499 224-499 500 0 276 228 500 499 500 150 0 257-60 337-138l-95-96c-57 55-135 97-242 97-198 0-353-162-353-363 0-201 155-363 353-363 128 0 201 52 248 100 38 38 63 93 73 169l-321 0z" horiz-adv-x="1000" />

<glyph glyph-name="website" unicode="&#xe817;" d="M42 642l916 0 0 125c0 23-18 41-41 41l-834 0c-23 0-41-18-41-41l0-125z m0-42l0-667c0-23 18-41 41-41l834 0c23 0 41 18 41 41l0 667-916 0z m41 250l834 0c46 0 83-37 83-83l0-834c0-46-37-83-83-83l-834 0c-46 0-83 37-83 83l0 834c0 46 37 83 83 83z m42-167c-23 0-42 19-42 42 0 23 19 42 42 42 23 0 42-19 42-42 0-23-19-42-42-42z m125 0c-23 0-42 19-42 42 0 23 19 42 42 42 23 0 42-19 42-42 0-23-19-42-42-42z m125 0c-23 0-42 19-42 42 0 23 19 42 42 42 23 0 42-19 42-42 0-23-19-42-42-42z m-208-166l666 0c23 0 42-19 42-42l0-167c0-23-19-41-42-41l-666 0c-23 0-42 18-42 41l0 167c0 23 19 42 42 42z m-21-334l708 0c12 0 21-9 21-20 0-12-9-21-21-21l-708 0c-12 0-21 9-21 21 0 11 9 20 21 20z m0-125l708 0c12 0 21-9 21-20 0-12-9-21-21-21l-708 0c-12 0-21 9-21 21 0 11 9 20 21 20z" horiz-adv-x="1000" />

<glyph glyph-name="blog-post" unicode="&#xe818;" d="M83 808c-23 0-41-18-41-41l0-709c0-23 18-41 41-41l277 0c22 0 43-9 59-25l81-83 84 83c15 16 36 25 59 25l274 0c23 0 41 18 41 41l0 709c0 23-18 41-41 41l-834 0z m0 42l834 0c46 0 83-37 83-83l0-709c0-46-37-83-83-83l-274 0c-12 0-22-4-30-12l-83-83c-17-17-43-17-59 0l0 0-82 82c-7 8-18 13-29 13l-277 0c-46 0-83 37-83 83l0 709c0 46 37 83 83 83z m84-125l166 0c23 0 42-19 42-42l0-166c0-23-19-42-42-42l-166 0c-23 0-42 19-42 42l0 166c0 23 19 42 42 42z m-21-333l708 0c12 0 21-10 21-21 0-12-9-21-21-21l-708 0c-12 0-21 9-21 21 0 11 9 21 21 21z m0-125l708 0c12 0 21-10 21-21 0-12-9-21-21-21l-708 0c-12 0-21 9-21 21 0 11 9 21 21 21z m333 375l375 0c12 0 21-10 21-21 0-12-9-21-21-21l-375 0c-11 0-21 9-21 21 0 11 10 21 21 21z m0-125l375 0c12 0 21-10 21-21 0-12-9-21-21-21l-375 0c-11 0-21 9-21 21 0 11 10 21 21 21z" horiz-adv-x="1000" />

<glyph glyph-name="question" unicode="&#xe819;" d="M500-108c253 0 458 205 458 458 0 253-205 458-458 458-253 0-458-205-458-458 0-253 205-458 458-458z m0-42c-276 0-500 224-500 500 0 276 224 500 500 500 276 0 500-224 500-500 0-276-224-500-500-500z m-114 685c7 6 15 13 23 18 9 6 18 11 28 16 9 4 20 8 32 10 11 3 23 4 37 4 17 0 34-3 49-8 15-5 27-12 38-21 11-10 20-21 26-34 6-14 9-29 9-45 0-17-2-32-7-44-5-12-11-23-19-32-8-9-16-17-25-24-9-7-18-13-26-19-8-6-14-12-20-18-6-6-9-13-10-20l-6-51-41 0-4 55 0 4c0 9 3 17 8 25 5 7 11 14 19 20 8 6 16 13 25 19 8 6 17 13 24 21 8 8 14 16 19 26 5 10 8 21 8 35 0 9-2 18-6 26-4 7-9 14-15 20-7 5-14 9-23 12-9 3-18 4-28 4-14 0-25-1-35-5-10-3-18-7-25-11-6-4-12-7-16-11-4-3-7-5-10-5-6 0-10 3-13 8l-16 25z m66-398c0 5 1 11 3 16 2 5 5 10 9 13 3 4 8 7 13 9 5 3 10 4 16 4 6 0 11-1 16-4 5-2 10-5 14-9 3-3 6-8 9-13 2-5 3-11 3-16 0-6-1-12-3-17-3-5-6-9-9-13-4-4-9-7-14-9-5-2-10-3-16-3-6 0-11 1-16 3-5 2-10 5-13 9-4 4-7 8-9 13-2 5-3 11-3 17z" horiz-adv-x="1000" />

<glyph glyph-name="answered" unicode="&#xe820;" d="M500-108c253 0 458 205 458 458 0 253-205 458-458 458-253 0-458-205-458-458 0-253 205-458 458-458z m0-42c-276 0-500 224-500 500 0 276 224 500 500 500 276 0 500-224 500-500 0-276-224-500-500-500z m209 669l33-25-250-327-225 224 29 30 192-191 221 289z" horiz-adv-x="1000" />
</font>
</defs>
</svg>
